返回列表 发帖

[1080P] 红海龟/红龟/人龟情未了 The.Red.Turtle.2016.1080p.AMZN.WEBRip.DDP5.1.x264-SiGMA




◎译  名 红海龟/红龟/人龟情未了
◎片  名 La tortue rouge / レッドタートル ある島の物語 / The Red Turtle
◎年  代 2016
◎国  家 日本/法国/比利时
◎类  别 动画/奇幻
◎语  言 英语 
◎字  幕 N/A
◎IMDb评分 7.6/10 from 17809 users
◎IMDB链接 http://www.imdb.com/title/tt3666024
◎文件格式 x264 + DDP
◎视频尺寸 1920x1040
◎文件大小 4.31 GiB
◎片  长 1 h 20 min
◎导  演 迈克尔·度德威特 Michael Dudok de Wit
◎主  演 




◎简  介

  吉卜力工作室与法国合资。奥斯卡最佳动画短片(《父与女》)得主迈克尔·度德威特执导,讲述一次船舶失事后,存活下的男人企图建造救生筏逃离荒岛,但他的计划却不断被一只神秘的巨型红海龟破坏。

获奖情况

奥斯卡金像奖(2017;第89届)
提名
·奥斯卡奖-最佳动画长片迈克尔·度德威特 Michael Dudok de Wit  铃木敏夫 Toshio Suzuki  

戛纳电影节(2016;第69届)
获奖
·一种关注-评审团特别奖迈克尔·度德威特 Michael Dudok de Wit  
提名
·金摄影机奖迈克尔·度德威特 Michael Dudok de Wit  
·一种关注大奖迈克尔·度德威特 Michael Dudok de Wit  

欧洲电影奖(2016;第29届)
提名
·欧洲电影奖-最佳动画

法国凯撒奖(2017;第42届)
提名
·凯撒奖-最佳动画片 Pascal Caucheteux  迈克尔·度德威特 Michael Dudok de Wit   Vincent Maraval  

安妮奖(2017;第44届)
获奖
·安妮奖-Best Animated Feature - Independent
提名
·安妮奖-最佳动画电影导演迈克尔·度德威特 Michael Dudok de Wit  
·安妮奖-最佳动画电影编剧迈克尔·度德威特 Michael Dudok de Wit  帕斯卡尔·费兰 Pascale Ferran  
·安妮奖-最佳动画效果
·安妮奖-最佳动画电影配乐洛朗·佩雷斯 Laurent Perez Del Mar

Video
ID                                       : 1
Format                                   : AVC
Format/Info                              : Advanced Video Codec
Format profile                           : High@L4
Format settings                          : CABAC / 4 Ref Frames
Format settings, CABAC                   : Yes
Format settings, ReFrames                : 4 frames
Codec ID                                 : V_MPEG4/ISO/AVC
Duration                                 : 1 h 20 min
Bit rate mode                            : Variable
Bit rate                                 : 6 974 kb/s
Maximum bit rate                         : 15.0 Mb/s
Width                                    : 1 920 pixels
Height                                   : 1 040 pixels
Display aspect ratio                     : 1.85:1
Frame rate mode                          : Constant
Frame rate                               : 24.000 FPS
Color space                              : YUV
Chroma subsampling                       : 4:2:0
Bit depth                                : 8 bits
Scan type                                : Progressive
Bits/(Pixel*Frame)                       : 0.146
Stream size                              : 3.94 GiB (92%)
Default                                  : Yes
Forced                                   : No
Color range                              : Limited
Color primaries                          : BT.709
Transfer characteristics                 : BT.709
Matrix coefficients                      : BT.709

Audio
ID                                       : 2
Format                                   : E-AC-3
Format/Info                              : Enhanced Audio Coding 3
Codec ID                                 : A_EAC3
Duration                                 : 1 h 20 min
Bit rate mode                            : Constant
Bit rate                                 : 640 kb/s
Channel(s)                               : 6 channels
Channel positions                        : Front: L C R, Side: L R, LFE
Sampling rate                            : 48.0 kHz
Frame rate                               : 187.500 FPS (256 SPF)
Compression mode                         : Lossy
Stream size                              : 371 MiB (8%)
Language                                 : English
Service kind                             : Complete Main
Default                                  : Yes
Forced                                   : No
img]http://imagecurl.com/images/13765691012031760609_thumb.png[/img]









The.Red.Turtle.2016.1080p.AMZN.WEBRip.DDP5.1.x264-SiGMA.torrent (86.68 KB)

分享到: 新浪微博新浪微博 QQ空间QQ空间 腾讯微博腾讯微博 腾讯朋友腾讯朋友

多谢超版分享

TOP

感谢楼主无私奉献
一个在,冲

TOP

感谢版主分享
花落滿懷  暗香盈袖  淡淡歡喜淡淡愁

TOP

多谢楼主分享

TOP

返回列表