返回列表 发帖

[720P] 南瓜与蛋黄酱/南瓜与美乃滋 Pumpkin.and.Mayonnaise.2017.JAPANESE.720p.BluRay.x264-WiKi



◎译  名 南瓜与蛋黄酱/南瓜与美乃滋
◎片  名 南瓜とマヨネーズ
◎年  代 2017
◎国  家 日本
◎类  别 剧情
◎语  言 日语
◎字  幕 中文
◎IMDb评分  6.5/10 from 11 users
◎IMDB链接 http://imdb.com/title/tt6964896
◎文件格式 x264 + DD5.1
◎视频尺寸 1280 x 536
◎文件大小 3.68  GiB
◎片  长 1 h 33 min
◎导  演 冨永昌敬 Masanori Tominaga
◎主  演 臼田麻美 Asami Usuda
      小田切让 J? Odagiri
      太贺 Taiga
      浅香航大 K?dai Asaka
      若叶龙也 Tatsuya Wakaba
      大友律
      清水久留巳 Kurumi Shimizu
      冈田纱里 Sario Okada
      光石研 Ken Mitsuishi

◎简  介

  土田(臼田麻美 饰)的前男友荻尾(小田切让 饰)是个渣男,跟《日在校园》伊藤诚一样到处沾花捻草,土田还为他堕过胎。在身心俱损的情况下,她被现在的男友阿诚(太贺 饰)所拯救。阿诚希望当上音乐家,但整天蹲在家里,生活的重担就落在了土田身上。为了生活,土田不得不去当陪酒女。但与此同时,土田又对前男友念念不忘。
Video
ID                                       : 1
Format                                   : AVC
Format/Info                              : Advanced Video Codec
Format profile                           : High@L4.1
Format settings                          : CABAC / 12 Ref Frames
Format settings, CABAC                   : Yes
Format settings, ReFrames                : 12 frames
Codec ID                                 : V_MPEG4/ISO/AVC
Duration                                 : 1 h 33 min
Bit rate                                 : 4 904 kb/s
Width                                    : 1 280 pixels
Height                                   : 536 pixels
Display aspect ratio                     : 2.40:1
Frame rate mode                          : Constant
Frame rate                               : 23.976 (24000/1001) FPS
Color space                              : YUV
Chroma subsampling                       : 4:2:0
Bit depth                                : 8 bits
Scan type                                : Progressive
Bits/(Pixel*Frame)                       : 0.298
Stream size                              : 3.19 GiB (87%)
Writing library                          : x264 core 142 r2431+42 c69a006 tMod [8-bit@all X86_64]
Encoding settings                        : cabac=1 / ref=12 / deblock=1:-2:-2 / analyse=0x3:0x133 / me=umh / subme=11 / psy=1 / fade_compensate=0.00 / psy_rd=1.00:0.05 / mixed_ref=1 / me_range=32 / chroma_me=1 / trellis=2 / 8x8dct=1 / cqm=0 / deadzone=21,11 / fast_pskip=0 / chroma_qp_offset=-1 / threads=12 / lookahead_threads=3 / sliced_threads=0 / nr=0 / decimate=0 / interlaced=0 / bluray_compat=0 / constrained_intra=0 / fgo=0 / bframes=10 / b_pyramid=2 / b_adapt=2 / b_bias=0 / direct=3 / weightb=1 / open_gop=0 / weightp=2 / keyint=250 / keyint_min=23 / scenecut=40 / intra_refresh=0 / rc=crf / mbtree=0 / crf=15.0000 / qcomp=0.70 / qpmin=0:0:0 / qpmax=69:69:69 / qpstep=4 / ip_ratio=1.40 / pb_ratio=1.30 / aq=1:0.80 / aq-sensitivity=10.00 / aq-factor=1.00:1.00:1.00 / aq2=0 / aq3=0
Language                                 : Japanese
Default                                  : Yes
Forced                                   : No
Color range                              : Limited
Matrix coefficients                      : BT.709

Audio
ID                                       : 2
Format                                   : AC-3
Format/Info                              : Audio Coding 3
Codec ID                                 : A_AC3
Duration                                 : 1 h 33 min
Bit rate mode                            : Constant
Bit rate                                 : 640 kb/s
Channel(s)                               : 6 channels
Channel positions                        : Front: L C R, Side: L R, LFE
Sampling rate                            : 48.0 kHz
Frame rate                               : 31.250 FPS (1536 SPF)
Bit depth                                : 16 bits
Compression mode                         : Lossy
Stream size                              : 426 MiB (11%)
Language                                 : Japanese
Service kind                             : Complete Main
Default                                  : Yes
Forced                                   : No

Text
ID                                       : 3
Format                                   : ASS
Codec ID                                 : S_TEXT/ASS
Codec ID/Info                            : Advanced Sub Station Alpha
Compression mode                         : Lossless
Title                                    : CHT
Language                                 : Chinese
Default                                  : No
Forced                                   : No

Menu
00:00:00.000                             : en:00:00:00.000
00:00:30.030                             : en:00:00:30.030
00:12:28.915                             : en:00:12:28.915
00:22:04.573                             : en:00:22:04.573
00:31:53.495                             : en:00:31:53.495
00:41:20.353                             : en:00:41:20.353
00:51:06.605                             : en:00:51:06.605
00:58:06.274                             : en:00:58:06.274
01:05:30.093                             : en:01:05:30.093
01:14:42.395                             : en:01:14:42.395
01:23:21.914                             : en:01:23:21.914





Pumpkin.and.Mayonnaise.2017.JAPANESE.720p.BluRay.x264-WiKi.torrent (74.13 KB)

分享到: 新浪微博新浪微博 QQ空间QQ空间 腾讯微博腾讯微博 腾讯朋友腾讯朋友

多谢超版分享

TOP

多谢超版分享

TOP

感谢楼主分享

TOP

返回列表